发新话题
打印

[剧情][改变规则][DVDRiP-AVI/1.27G][英语中字][迅雷快传][2012最新电影]

[剧情][改变规则][DVDRiP-AVI/1.27G][英语中字][迅雷快传][2012最新电影]



◎译  名 改变规则
◎片  名 Game Change
◎年  代 2012
◎国  家 美国
◎类  别 剧情
◎语  言 英语
◎字  幕 中文
◎IMDB评分 7.9/10 (1,282 votes)
◎IMDB链接 http://www.imdb.com/title/tt1848902/
◎文件格式 XviD + MP3
◎视频尺寸 720 x 400
◎文件大小 1CD 94 x 15MB
◎片  长 118 mins
◎导  演 Jay Roach
◎主  演 
朱丽安·摩尔 Julianne Moore ....Sarah Palin
艾德·哈里斯 Ed Harris ....John McCain
伍迪·哈里森 Woody Harrelson ....Steve Schmidt
Alex Hyde-White ....Sen. Lindsey Graham
布莱恩·豪威 Brian Howe ....Randy Scheunemann
拉里·苏利文 Larry Sullivan ....Chris Edwards
Brittany Underwood ....Willow Palin
Kevin Bigley ....Track Palin
Colby French ....Tucker Eskew
朗·里维斯顿 Ron Livingston

影片简介

根据Mark Halperin和John Hailemann合著的同名纪实文学改编,影片将以麦凯恩参议员为主角,讲述他与竞选搭档莎拉·佩林合作竞选2008年总统的故事,最终他们输给了民主党候选人、现任美国总统贝拉克·奥巴马(Barack Obama)。



幕后制作

HBO将找来曾经凭借2008年的《选票风波》而获得艾美奖最佳导演的杰伊·罗奇(JayRoach)来执导该片。《选票风波》聚焦了2000年大选时发生在戈尔和小布什之间沸沸扬扬的佛州计票风波,这部出色的电视电影为HBO赢得了3项艾美奖。相信对于同类型题材,杰伊会有他独到的解读。剧本将由DannyStrong执笔,两人都将作为该片的联合执行制作人。

截图



ID : 0
Format : MPEG-4 Visual
Format profile : Advanced [email protected]
Format settings, BVOP : 2
Format settings, QPel : No
Format settings, GMC : No warppoints
Format settings, Matrix : Default (H.263)
Muxing mode : Packed bitstream
Codec ID : XVID
Codec ID/Hint : XviD
Duration : 1h 57mn
Bit rate : 1 219 Kbps
Width : 720 pixels
Height : 400 pixels
Display aspect ratio : 16:9
Frame rate : 29.970 fps
Color space : YUV
Chroma subsampling : 4:2:0
Bit depth : 8 bits
Scan type : Progressive
Compression mode : Lossy
Bits/(Pixel*Frame) : 0.141
Stream size : 1.00 GiB (79%)
Writing library : XviD 64

Audio
ID : 1
Format : MPEG Audio
Format version : Version 1
Format profile : Layer 3
Mode : Joint stereo
Mode extension : MS Stereo
Codec ID : 55
Codec ID/Hint : MP3
Duration : 1h 57mn
Bit rate mode : Constant
Bit rate : 320 Kbps
Channel(s) : 2 channels
Sampling rate : 44.1 KHz
Compression mode : Lossy
Delay relative to video : 26ms
Stream size : 270 MiB (21%)
Alignment : Split accross interleaves
Interleave, duration : 33 ms (1.00 video frame)
Interleave, preload duration : 500 ms
Writing library : LAME3.92U•ÆÈ


迅雷快传:20天有效
改变规则.Game.Change.2012.DVDRiP.XViD-ViBE.avi
中文字幕下载

TOP

发新话题